Skip to main content

Marco Benevento Live at Sullivan Hall on 2010-01-02




Disc 1:
Set 1:

1.Intro
2.
3.
4. The Real Morning Party ->
5. Birthday Boy ->
6. banter - Marco intros band and wishes Dave a happy birthday ->
7. Birthday Boy (reprise) ->
8. Happy Birthday To You (crowd sings along) ->
9. Twin Killers
10.
11. Steel drum solo ->
12. ->
13. The Real Morning Party (Reprise, with band intros)
14. Baby Bitch
15. thanks, outro


Collection MarcoBenevento
Band/Artist Marco Benevento
Venue Sullivan Hall
Location NYC, NY

Source DPA 4023>Lunatec V3>AD2K(@24 Bit/48khz)>Tascam HDP2
Lineage CF Card>USB>Soundforge 8(tracking,normalization,resample/dither to 16bit/44.1khz)>FLAC (sector alignment,Level 8)
Taped by John Lynch
Transferred by Andy Murray

Notes

Marco Benevento Trio
2010-01-02
Sullivan Hall
NYC, NY

Recorded by John Lynch
Transferred by Andy Murray

Mics were DIN,FOB Left of Center 20' from stage
DPA 4023>Lunatec V3>AD2K(24bit/48khz)>Tascam HDP2
CF Card>USB>Soundforge 8(tracking,normalizing)>FLAC Level 8

Marco Benvento - piano
Dave Dreiwitz - bass
Billy Martin - drums

Opened for The Slip

1 Disc
1 Set


length expanded size cdr WAVE problems filename
0:42.14 7441772 --- -- ----- mbt2010-01-02_dpa4023_1644_d1t01.wav
7:20.00 77616044 --- -- ----- mbt2010-01-02_dpa4023_1644_d1t02.wav
7:52.41 83357276 --- -- ----- mbt2010-01-02_dpa4023_1644_d1t03.wav
10:30.53 111256700 --- -- ----- mbt2010-01-02_dpa4023_1644_d1t04.wav
3:34.11 37775516 --- -- ----- mbt2010-01-02_dpa4023_1644_d1t05.wav
0:43.30 7655804 --- -- ----- mbt2010-01-02_dpa4023_1644_d1t06.wav
1:45.68 18681980 --- -- ----- mbt2010-01-02_dpa4023_1644_d1t07.wav
0:46.56 8246156 --- -- ----- mbt2010-01-02_dpa4023_1644_d1t08.wav
6:38.48 70320140 --- -- ----- mbt2010-01-02_dpa4023_1644_d1t09.wav
8:48.35 93221564 --- -- ----- mbt2010-01-02_dpa4023_1644_d1t10.wav
1:23.34 14721212 --- -- ----- mbt2010-01-02_dpa4023_1644_d1t11.wav
7:32.20 79779884 --- -- ----- mbt2010-01-02_dpa4023_1644_d1t12.wav
4:16.72 45327788 --- -- ----- mbt2010-01-02_dpa4023_1644_d1t13.wav
6:04.57 64343708 --- -- ----- mbt2010-01-02_dpa4023_1644_d1t14.wav
0:47.17 8330828 --- -- ----- mbt2010-01-02_dpa4023_1644_d1t15.wav
68:47.31 728076372 B (totals for 15 files, 1.0000 overall compression ratio)

Reviews

There are no reviews yet. Be the first one to write a review.
DOWNLOAD OPTIONS
Uploaded by
andyjah
on 1/12/2010
Views
124
Favorites
1
PEOPLE ALSO FOUND
Marco Benevento
by Marco Benevento
134
0
0
Source: DPA 4023>Lunatec V3>AD2K(@24 Bit/48khz)>Tascam HDP2
Marco Benevento
by Marco Benevento
124
1
0
Source: DPA 4023>Lunatec V3>AD2K(@24 Bit/48khz)>Tascam HDP2
( 1 reviews )
Source: Schoeps Mk41>KC5>CMC6>Sonosax SX-R4(24bit/96khz) & Soundboard
Source: Schoeps MK41>KC5>CMC6>Sonosax SX-M2>Apogee Mini-me(aes out,24bit/96khz)>COAX>Edirol R-44 & Soundboard>R-44
Source: Schoeps MK4>KC5>CMC6>Sonosax SX-R4(24bit/96khz) & Soundboard>R-4
Bonerama
by Bonerama
81
0
0
Source: Schoeps MK22>KC5>CMC6>Sonosax SX-M2>Apogee Mini-me(aes out @ 24bit/96khz)>COAX>Edirol R-44+Soundboard feed to channels 3&4>R-44
Seed
by Seed
79
0
0
Source: Schoeps MK4>KC5>CMC6>Sonosax SX-M2>Apogee Mini-me(aes out,24bit/96khz)>COAX>Edirol R-44 & Soundboard>R-44
Source: Schoeps Mk41>KC5>CMC6>Sonosax SX-R4(24bit/96khz) & Soundboard
Assembly of Dust
by Assembly of Dust
303
0
0
Source: Schoeps MK41>KC5>CMC6>Sonosax SX-M2>Apogee Mini-me(aes out@24 bit/96khz)>COAX>Edirol R-44
Otis Grove
by Otis Grove
112
0
0
Source: Schoeps MK22/MK4>KC5>CMC6>Sonosax SX-R4(24bit/48khz) & SB>SX-R4